+ Responder Tópico
  1. #1
    Membro
    Info Conteúdo e Citações Jogos Mensageiros
    Registro
    Jan 2003
    Mensagens
    1.763
    Verdinhas
    33

    E agora tah travando no logo da SEGA

    Bom eu tenho o maldito "toc.bin" o arquivo "shishinobiden.bin" o "shinshinobiden.cue" e jah acertei o "game.dat" onde aqui aparecia umas letras estranhas em alguns jogos e eu achei o jogo correto pro shinobi.
    O meu "base.ini" tah assim:

    ;Šî–{î•ñÝ’èƒtƒ@ƒCƒ‹
    [BASEINFO]
    USERDIR=profiles\saturn
    AREA=1
    DISK1TOC=.\TOC.BIN
    DISK1IMG=SHINSHINOBIDEN.BIN

    O meu "CUE" tah assim:

    FILE "SHINSHINOBIDEN.BIN" BINARY
    TRACK 01 MODE1/2352
    INDEX 01 00:00:00
    TRACK 02 AUDIO
    PREGAP 00:02:00
    INDEX 01 41:46:37
    TRACK 03 AUDIO
    INDEX 00 42:21:44
    INDEX 01 42:23:44

    A identificação correta do shinobi no "game.dat" eh:

    ;shin shinobi den(J)
    [GS-9010]
    PriorityMode =0
    EdsrShift =0
    VSync =40
    FrameWait =166
    DistSpriteCheck = 0

    E o meu "toc.bin" tah assim:
    1A –2Þé3é1ªg

    Antes soh aparecia a bios e travava agora apareçe o logo da SEGA e trava quem manja dah uma olha nesses arquivos aew pra mim eu to loco pra joga esse game pow faz 3 dias que fico quebrando a cabeça pra fz isso funfa

    []'

  2. # Publicidade
    Publicidade

  3. #2
    Membro Avatar de ShadowMaster
    Info Conteúdo e Citações Jogos Mensageiros
    Registro
    Jul 2001
    Mensagens
    3.860
    Verdinhas
    430

    Esse é qual shinobi?! vai ver não roda vou testar aqui depois...

  4. #3
    Membro Avatar de ShadowMaster
    Info Conteúdo e Citações Jogos Mensageiros
    Registro
    Jul 2001
    Mensagens
    3.860
    Verdinhas
    430

    Bom, aqui o shinobi legions não rodou.
    Então hehehe
    Não é compatível, vou ler a lista de compatibilidade depois.

    Instalei o cdrwin e vou rippar o nights pra ver como fica.

    O podia estar funcionando o lance de rodar do cd

    Valeu aí.

  5. #4
    Redação
    hardMOB
    Avatar de Rodrigo Guerini
    Info Conteúdo e Citações Jogos Mensageiros
    Registro
    May 2002
    Mensagens
    12.630
    Blogs
    10
    Verdinhas
    1645

    Provavelmente o jogo não é emulado

    Confira a lista de compatibilidade em vários locais deste e em outros fóruns prá saber se o jogo é emulado, teste-o e veja se funciona... Se funcionar.. o problema provavelmente é que ele não emula o determinado jogo..

    Se não emular um jogo que já foi compravado a sua compatibilidade, aí a gente trabalha em cima

  6. #5
    Membro
    Autor do tópico
    Info Conteúdo e Citações Jogos Mensageiros
    Registro
    Jan 2003
    Mensagens
    1.763
    Verdinhas
    33

    vlw :)

    Realmente meu problema era tentar emular o shin shinobi den mesmo ele num roda no emulador ainda putz q droga eu queria muito joga ele mas fz o q neh paciencia bom eu tenho a iso as wave e tudo mais a hora que o emulador conseguir rodar ele eu jogo vlw mesmo galera obrigaduzzzz


  7. #6
    Membro Avatar de ShadowMaster
    Info Conteúdo e Citações Jogos Mensageiros
    Registro
    Jul 2001
    Mensagens
    3.860
    Verdinhas
    430

    Esse shin shinobi den, é o shinobi legions japones ou é outro?!?

  8. #7
    Membro
    Autor do tópico
    Info Conteúdo e Citações Jogos Mensageiros
    Registro
    Jan 2003
    Mensagens
    1.763
    Verdinhas
    33

    sim

    Originalmente enviada por ShadowMaster
    Esse shin shinobi den, é o shinobi legions japones ou é outro?!?

+ Responder Tópico Ir para o Fórum

Assuntos do tópico

Compartilhar

Permissões